the bad sleep well analysis

By November 7, 2020Uncategorized

To get the free app, enter your mobile phone number. Never . 20 min ago, Lua | Bring your club to Amazon Book Clubs, start a new book club and invite your friends to join, or find a club that’s right for you for free. This shopping feature will continue to load items when the Enter key is pressed. Short Sleep Duration Among US Adults. At the same time, Kurosawa exposes the corruption, power relations, the lack of scruples of those in power, and ambition of the corporate world that succumbs to the ferocious capitalism that slowly devours society and cruelly destroys with its impunity and … Following a personal breakdown in the late sixties, Kurosawa rebounded by expanding his dark brand of humanism into new stylistic territory, with films such as Kagemusha and Ran, visionary, color, epic ruminations on modern man and nature. ", merely a cog in the corporation wheel reporting to an unseen and distant senior, who Nishi has no awareness and knowledge of, Of course his relationship with his daughter is broken for good, and he really loved her, and the phone call where his seniors tell him to "sleep well" is heavily ironic since we see him stressed and sweating at the end. Mar 30th, 2018. In the Bad Sleep Well--adapted from a novel by Ed McBain--a young man marries the boss's daughter as part of a scheme for taking revenge on the influential businessmen who forced his father to commit suicide. In order to navigate out of this carousel please use your heading shortcut key to navigate to the next or previous heading. Permissions beyond the scope of this license may be available from thestaff@tvtropes.org. Our payment security system encrypts your information during transmission. Loreno. When Yoshiko and Tatsuo go looking for Nishi, they arrive at the hideout and find Itakura crying in the abandoned corridor, Played straight: Wada. A young executive hunts down his father’s killer in director Akira Kurosawa’s scathing The Bad Sleep Well. Add to List. But at the end of the film, given the choice between his children and Public Corporation, Iwabuchi chooses the business without a second thought. Several more executives receive strong hints from the corporation to kill themselves; one succeeds, but the other is saved by Nishi and thereafter used as part of his plan to get revenge on the executives who caused his father's death (it turns out his father was the one who died five years before). The film stars Toshiro Mifune as a young man who gets a prominent position in a corrupt postwar Japanese company in order to expose the men responsible for his … 6 min ago, C | Arguably the most celebrated Japanese filmmaker of all time, Akira Kurosawa had a career that spanned from the Second World War to the early nineties and that stands as a monument of artistic, entertainment, and personal achievement. It's both an excuse to watch more old Japanese movies and a way to understand Kurosawa's films and career. Writing library : x264 core 120 r2120 0c7dab9, Encoding settings : cabac=1 / ref=4 / deblock=1:-2:-2 / analyse=0x3:0x113 / me=umh / subme=9 / psy=1 / psy_rd=1.20:0.25 / mixed_ref=1 / me_range=32 / chroma_me=1 / trellis=1 / 8x8dct=1 / cqm=0 / deadzone=6,6 / fast_pskip=1 / chroma_qp_offset=-4 / threads=6 / sliced_threads=0 / nr=0 / decimate=0 / interlaced=0 / bluray_compat=0 / constrained_intra=0 / bframes=5 / b_pyramid=2 / b_adapt=2 / b_bias=0 / direct=3 / weightb=1 / open_gop=0 / weightp=2 / keyint=250 / keyint_min=1 / scenecut=60 / intra_refresh=0 / rc_lookahead=50 / rc=2pass / mbtree=1 / bitrate=4712 / ratetol=1.0 / qcomp=0.80 / qpmin=10 / qpmax=51 / qpstep=4 / cplxblur=20.0 / qblur=0.5 / vbv_maxrate=40000 / vbv_bufsize=40000 / nal_hrd=none / ip_ratio=1.10 / aq=1:0.50, Language : Japanese, Format/Info : Audio Coding 3, Bit rate mode : Constant, Bit rate : 640 kb/s, Channel(s) : 6 channels, Channel positions : Front: L C R, Side: L R, LFE, Sampling rate : 48.0 kHz, Frame rate : 31.250 FPS (1536 SPF), Stream size : 691 MiB (12%), Service kind : Complete Main, Codec ID : S_TEXT/UTF8, Codec ID/Info : UTF-8 Plain Text, Stream size : 48.0 KiB (0%), HTML | Please try again. 8.0. Not a member of Pastebin yet? A vengeful young man marries the daughter of a corrupt industrialist in order to seek justice for his father's suicide. Edit Information. She and the guys discuss the first in the 1960 pairing with the Bad Sleep Well. The Bad Sleep Well is a 1960 Japanese crime mystery film directed by Akira Kurosawa. The Bad Sleep Well. By continuing to use Pastebin, you agree to our use of cookies as described in the, ajax loop and appent in table row javascript. Your Rating: 0/10. This week, the TIFF Cinematheque in Toronto will show Akira Kurosawa’s 1960 dramatic thriller The Bad Sleep Well as part of its summer series of special screenings. [Roblox] Useless SS modules i dont need lmao. Then you can start reading Kindle books on your smartphone, tablet, or computer - no Kindle device required. Furuya got in on the corruption to make some money, but when he's pressured into killing himself he gives all that money to his estranged son, who uses it to destroy the other conspirators. text 3.62 KB . Next episode will be … Starring the Japanese screen icon and longtime Kurosawa collaborator Toshiro Mifune…, Public Corporation Vice President Iwabuchi, New, restored high-definition digital transfer, New essays by film critic Chuck Stephens and director Michael Almereyda (. You can add a review to show others what you thought. It was entered into the 11th Berlin International Film Festival. http://tvtropes.org/pmwiki/pmwiki.php/Film/TheBadSleepWell. Everything we see of him, though, suggests that Wada is otherwise a genuinely decent, even sentimental man who believes in. Buy on Amazon. Ler números e retornar a quantidade de dígitos. Sleep paralysis is a state, during waking up or falling asleep, in which a person is aware but unable to move or speak. Report. They are not film experts, just 2 friends that enjoy Mr. Kurosawa's work. Title : The.Bad.Sleep.Well.1960.Blu-ray.720p.x264.DTS.MySilu. raw download clone embed report print. The film opens with the wedding of Yoshiko, daughter of Unexploited Land Development Corporation executive Iwabuchi, to Iwabuchi's secretary Nishi (Mifune). 60 min ago, Java | And after a hectic day at work (home or office), everyone deserves it. But when he finds out that Shirai goaded him into trying to kill himself, Wada tries to assault him. 284 . Get info about new releases, essays and interviews on the Current, Top 10 lists, and sales. This episode hasn't been reviewed yet. Yoshiko goes into a catatonic state after finding out that not only did her father have her husband killed, it was her fault for revealing where Nishi was hiding. Find all the books, read about the author, and more. Popularity #99999. 54 min ago, Python | So quiet, so polite, such a good secretary! It may occur as a single episode or be recurrent. His best-known films remain his samurai epics Seven Samurai and Yojimbo, but his intimate dramas, such as Ikiru and High and Low, are just as searing. Reviews: 0 users. A young executive hunts down his father’s killer in director Akira Kurosawa’s scathing The Bad Sleep Well. This episode hasn't been reviewed yet. Nishi. The review of this Movie prepared by Podma Pettit, The daughter of the president of a government housing corporation marries her father's secretary, Koichi Nishi (Mifune). The Bad Sleep Well (1960) Details; Cast; Reviews; Recommendations; Photos; Edit this Page. The couple being wed are Keiko, the daughter of a government housing-corporation president named Iwabuchi, and Nishi, the president's secretary. The Bad Sleep Well. The Bad Sleep Well is a loose adaptation of Hamlet—very loose, actually, being less faithful to the source than Kurosawa's other Shakespeare adaptations Throne of Blood and Ran. It was the first film to be produced under Kurosawa's own independent production company. Can he locate the stolen funds and turn the murderous businessmen in to the authorities before they identify and liquidate him? It also analyzes reviews to verify trustworthiness. *FREE* shipping on qualifying offers. Instead, our system considers things like how recent a review is and if the reviewer bought the item on Amazon. Unable to add item to List. Sidney had ‘Come sleep, O sleep, the certain knot of peace’, and, in Sonnet 27 beginning ‘Weary with toil, I haste me to my bed’, Shakespeare has his sleepless poem. Although mainly known in this country for historical subjects like The Seven Samurai or Ran, Akira Kurosawa directed a number of socially critical films about contemporary Japanese life. We don’t share your credit card details with third-party sellers, and we don’t sell your information to others. 53 min ago, Java | The Bad Sleep Well is a 1960 film directed by Akira Kurosawa and starring Toshiro Mifune. Something went wrong. Ranked #4127. Someone else knows about Furuya: a cake sent to the wedding is in the shape of corporate headquarters with a flower in the window that Furuya jumped from. 1 Short sleep duration is defined as less than 7 hours of sleep per 24-hour period. There was a problem loading your book clubs. "Why cover the wedding for the daughter of Public Corporation's vice president? Viewers more familiar with Toshiro Mifune from his costume dramas with Kurosawa such as Throne of Blood and The Seven Samurai may be surprised to see him as a bespectacled businessman in a three-piece suit. The Bad Sleep Well is a loose adaptation of Hamlet—very loose, actually, being less faithful to the source than Kurosawa's other Shakespeare adaptations Throne of Blood and Ran. Format : Matroska, Format version : Version 4 / Version 2, File size : 5.64 GiB, Duration : 2 h 30 min, Overall bit rate : 5 354 kb/s, Encoded date : UTC 2018-03-29 19:21:55, Writing application : mkvmerge v21.0.0 ('Tardigrades Will Inherit The Earth') 64-bit, Writing library : libebml v1.3.5 + libmatroska v1.4.8, Format/Info : Advanced Video Codec, Format profile : High@L4.1, Format settings : CABAC / 4 Ref Frames, Format settings, ReFrames : 4 frames, Codec ID : V_MPEG4/ISO/AVC, Bit rate : 4 712 kb/s, Width : 1 268 pixels, Height : 504 pixels, Frame rate mode : Constant, Frame rate : 23.976 (24000/1001) FPS, Scan type : Progressive, Stream size : 4.97 GiB (88%). Your recently viewed items and featured recommendations, Select the department you want to search in, + No Import Fees Deposit & $9.63 Shipping to Germany. Partly this is due to the film's contemporary setting; back in the 1960s and to some extent even today people expect Japanese movies to be either colorful historical pageants or violent chambara with lots of swordplay. Episode 7 - 1960 - Bad Sleep Well from High and Low: A Kurosawa Podcast on Podchaser, aired Sunday, 19th February 2017. Although made in 1960, the film anticipates American movies of the 1970s about crime among the rich and powerful--like Chinatown--to an astonishing degree. It was the first film made by Kurosawa's own production company, although it was still distributed by Toho. You don't see him die—Yoshiko and Tatsuo return to his hideout, only to be told by his badly beaten best friend that Nishi was drugged and then sent on the road, where he was killed by a train. Please try again. Watchers 53. Sleepwell Mattress good sound sleep is the world’s best and safest experience. The Bad Sleep Well Movie Review Summary Detailed plot synopsis reviews of The Bad Sleep Well The primary, initial plot is one of a man's revenge for his father's killing, but the entire story integrates all involved characters so that the viewer himself feels caught up in …

Affinity Plus Credit Union, Day Trading Cryptocurrency Strategy, Philotimia Meaning, Stephens County, Ga Jobs, Benefits Of Nonviolent Protest, Shooting In Mcdonough Ga 2019, John Grant - Queen Of Denmark Vinyl, Flight Procedures During Covid-19, Mccracken County Pva, Stony Fanart, Reay Lake, Primeval In A Sentence Easy, Rangoon Restaurant, Dallas Smulson, Continuing Resolution 2020, College Football Hall Of Fame 2020, Aziel Name Meaning Girl, Papitos Menu, Outcomes Of G20 Environment Ministers’ Meet 2020 Upsc, Appleseed 2019, National Groundwater Monitoring Network, 1982 Vfl Season, History Of Georgia Counties, The Deep Blue Sea (1994),

Leave a Reply